extratorrent - A Fan Made Alternative Login   |   Register
Important Information
Registrations are open now
-------------------------------------

Please click here to register with Extratorrent2 to recieve latest updates, add bookmarks and to post comments.

Friends
Friends

1) ProxyFix

Extratorrent2 > Categories > Movies > Black Sea (2014) 720p WEB-DL X265 HEVC - (Movieteam2000) - 444MB torrent


Browse Movies torrents

Black Sea (2014) 720p WEB-DL X265 HEVC - (Movieteam2000) - 444MB torrent


Download torrent: Download Black Sea (2014) 720p WEB-DL X265 HEVC - (Movieteam2000) - 444MB torrent Magnet link Bookmark Torrent: Black Sea (2014) 720p WEB-DL X265 HEVC - (Movieteam2000) - 444MB   Black Sea (2014) 720p WEB-DL X265 HEVC - (Movieteam2000) - 444MB torrent
Info hash: E80ACFAB4D765CE0D6D616B40ECCFFA8E6F9ED50
Category: Categories > Movies
Trackers:
View all torrent trackers >
Health:
 seeds: 0 ,  leechers: 1 |  Update >
Torrent language: English English
Total Size: 444.8 MB
Files List:
1    View torrent files >
Uploader:
Tvteam2000
Torrent added: May 24, 2015, 6:24 pm
Users rating: ---, not rated. please login to rate.

Download Black Sea (2014) 720p WEB-DL X265 HEVC - (Movieteam2000) - 444MB torrent



Torrent Description






General
Complete name : Black Sea (2014) 720p WEB-DL X265 HEVC - (Movieteam2000) - 444MB.mp4
Format : MPEG-4
File size : 445 MiB
Duration : 1h 54mn 25s 525ms
Overall BitRate : 543 Kbps


Video

ID : 1
Format : HEVC
Format/Info : High Efficiency Video Coding
Format profile :
Duration : 1h 54mn
Codec ID : hvc1
Bit rate : 475 Kbps
Width : 1 280 pixels
Height : 576 pixels
Display aspect ratio : 2.222
Frame rate : 23.976 fps
Frame rate mode : Constant
Stream size : 389 MiB (87%)


Audio

ID : 2
Format : MPEG Audio
Format profile : Layer 3
Codec ID : .mp3
Duration : 1h 54mn 25s 487ms
Bit rate mode : Variable
Bit rate : 65.0 Kbps
Channel(s) : 2 channels
Sampling rate : 48.0 KHz
Compression mode : Lossy
Stream size : 53.2 MiB (12%)








Download Black Sea (2014) 720p WEB-DL X265 HEVC - (Movieteam2000) - 444MB torrent


Related Torrents


Comments   (please login to add your comment!)

blonde hexe     prof     ulead video studio     rar     pregnant     argento     hunger games     supernatural s06e06     young     worst     core     satyamev jayate s     632     models     ava taylor hot ass     seller     ita     caccia spia ita     bluray hindi     libgdx     angles     pcgame     mila marx     tbt     


Home - Browse Torrents

Made with love by an Extratorrent Fan!