extratorrent - A Fan Made Alternative Login   |   Register
Important Information
Registrations are open now
-------------------------------------

Please click here to register with Extratorrent2 to recieve latest updates, add bookmarks and to post comments.

Friends
Friends

1) ProxyFix

Extratorrent2 > Categories > Movies > Black Sea 2014 720p BluRay x264 Dual Audio [Hindi - English 2.0 ] ESub [Moviezworldz] torrent


Browse Movies torrents

Black Sea 2014 720p BluRay x264 Dual Audio [Hindi - English 2.0 ] ESub [Moviezworldz] torrent


Download torrent: Download Black Sea 2014 720p BluRay x264 Dual Audio [Hindi - English 2.0 ] ESub [Moviezworldz] torrent Magnet link Bookmark Torrent: Black Sea 2014 720p BluRay x264 Dual Audio [Hindi - English 2.0 ] ESub [Moviezworldz]   Black Sea 2014 720p BluRay x264 Dual Audio [Hindi - English 2.0 ] ESub [Moviezworldz] torrent
Info hash: 1DEF547A4E1EDEDEE04852409C4F21AD4A689905
Category: Categories > Movies
Trackers:
View all torrent trackers >
Health:
 seeds: 50 ,  leechers: 30 |  Update >
Torrent language: Hindi Hindi
Total Size: 1,005.1 MB
Files List:
1    View torrent files >
Uploader:
moviezworldz
Torrent added: February 23, 2018, 4:52 am
Tags: Adventure, Thriller
Users rating: ---, not rated. please login to rate.

Download Black Sea 2014 720p BluRay x264 Dual Audio [Hindi - English 2.0 ] ESub [Moviezworldz] torrent



Torrent Description





General
Format : Matroska
Format version : Version 4 / Version 2
File size : 1 005 MiB
Duration : 1 h 54 min
Overall bit rate : 1 225 kb/s

Video
ID : 1
Format : AVC
Format/Info : Advanced Video Codec
Format profile :
Format settings : CABAC / 8 Ref Frames
Format settings, CABAC : Yes
Format settings, ReFrames : 8 frames
Codec ID : V_MPEG4/ISO/AVC
Duration : 1 h 54 min
Bit rate : 1 009 kb/s
Width : 1 280 pixels
Height : 532 pixels
Display aspect ratio : 2.40:1
Frame rate mode : Constant
Frame rate : 23.976 (24000/1001) FPS
Color space : YUV
Chroma subsampling : 4:2:0
Bit depth : 8 bits
Scan type : Progressive
Bits/(Pixel*Frame) : 0.062
Stream size : 827 MiB (82%)
Writing library : x264 core 148 r2721 72d53ab
Default : Yes
Forced : No

Audio #1
ID : 2
Format : AAC
Format/Info : Advanced Audio Codec
Format profile : LC
Codec ID : A_AAC-2
Duration : 1 h 54 min
Bit rate : 128 kb/s
Channel(s) : 2 channels
Channel positions : Front: L R
Sampling rate : 44.1 kHz
Frame rate : 43.066 FPS (1024 SPF)
Compression mode : Lossy
Stream size : 105 MiB (10%)
Language : Hindi
Default : Yes
Forced : No

Audio #2
ID : 3
Format : AAC
Format/Info : Advanced Audio Codec
Format profile : LC
Codec ID : A_AAC-2
Duration : 1 h 54 min
Bit rate : 85.8 kb/s
Channel(s) : 2 channels
Channel positions : Front: L R
Sampling rate : 48.0 kHz
Frame rate : 46.875 FPS (1024 SPF)
Compression mode : Lossy
Delay relative to video : 9 ms
Stream size : 70.4 MiB (7%)
Language : English
Default : No
Forced : No

Text
ID : 4
Format : UTF-8
Codec ID : S_TEXT/UTF8
Codec ID/Info : UTF-8 Plain Text
Duration : 1 h 49 min
Bit rate : 51 b/s
Count of elements : 1490
Stream size : 40.9 KiB (0%)
Default : Yes
Forced : No
















Download Black Sea 2014 720p BluRay x264 Dual Audio [Hindi - English 2.0 ] ESub [Moviezworldz] torrent


Related Torrents


Comments   (please login to add your comment!)

pizza     week 10     ita     mature     41974     julia sex therapy     hacking     my husband is fucking the nanny silvie deluxe     girls     lara duro woodmancastingx     the man with the iron fists 2012     storm     team     1000facials     boot     xxx kate     cock     the vagabond     nataly     3d comics     pure passion     tgx     1989     turkey     


Home - Browse Torrents

Made with love by an Extratorrent Fan!