extratorrent - A Fan Made Alternative Login   |   Register
Important Information
Registrations are open now
-------------------------------------

Please click here to register with Extratorrent2 to recieve latest updates, add bookmarks and to post comments.

Friends
Friends

1) ProxyFix

Extratorrent2 > Categories > Movies > Black Sea 2014 720p Esub BluRay Dual Audio English Hindi GOPISAHI torrent


Browse Movies torrents

Black Sea 2014 720p Esub BluRay Dual Audio English Hindi GOPISAHI torrent


Download torrent: Download Black Sea 2014 720p Esub BluRay  Dual Audio English Hindi GOPISAHI torrent Magnet link Bookmark Torrent: Black Sea 2014 720p Esub BluRay  Dual Audio English Hindi GOPISAHI   Black Sea 2014 720p Esub BluRay Dual Audio English Hindi GOPISAHI torrent
Info hash: BA1B5EAD2BE817BEC54B08FCE6A7C26EB82D93B9
Category: Categories > Movies
Trackers:
View all torrent trackers >
Health:
 seeds: 15 ,  leechers: 6 |  Update >
Torrent language: English English
Total Size: 660.7 MB
Files List:
1    View torrent files >
Uploader:
PENDUDESI
Torrent added: February 23, 2018, 4:51 am
Users rating: ---, not rated. please login to rate.

Download Black Sea 2014 720p Esub BluRay  Dual Audio English Hindi GOPISAHI torrent



Torrent Description


Format : Matroska

Format version : Version 4 / Version 2

File size : 661 MiB

Duration : 1 h 54 min

Overall bit rate : 805 kb/s

Movie name : Black Sea 2014 GOPISAHI


Video

ID : 1

Format : AVC

Format/Info : Advanced Video Codec

Codec ID : V_MPEG4/ISO/AVC

Duration : 1 h 54 min

Bit rate : 600 kb/s

Width : 1 280 pixels

Height : 534 pixels

Scan type : Progressive

Bits/(Pixel*Frame) : 0.037

Stream size : 492 MiB (74%)

Title : GOPISAHI

Writing library : x264 core 155 r2893 b00bcaf


Audio #1

Format : AAC

Duration : 1 h 54 min

Bit rate : 104 kb/s

Channel(s) : 6 channels

Channel positions : Front: L C R, Side: L R, LFE

Sampling rate : 44.1 kHz

Frame rate : 43.066 FPS (1024 SPF)

Stream size : 85.2 MiB (13%)

Language : Hindi


Audio #2

Format : AAC

Duration : 1 h 54 min

Bit rate : 98.9 kb/s

Channel(s) : 6 channels

Channel positions : Front: L C R, Side: L R, LFE

Sampling rate : 44.1 kHz

Frame rate : 43.066 FPS (1024 SPF)

Compression mode : Lossy

Stream size : 81.1 MiB (12%)

Language : English


Text

Language : English



Download Black Sea 2014 720p Esub BluRay  Dual Audio English Hindi GOPISAHI torrent


Related Torrents


Comments   (please login to add your comment!)


Home - Browse Torrents

Made with love by an Extratorrent Fan!