extratorrent - A Fan Made Alternative Login   |   Register
Important Information
Registrations are open now
-------------------------------------

Please click here to register with Extratorrent2 to recieve latest updates, add bookmarks and to post comments.

Friends
Friends

1) ProxyFix

Extratorrent2 > Categories > Movies > Black Sea(2014)MPEG-4[DaScubaDude] torrent


Browse Movies torrents

Black Sea(2014)MPEG-4[DaScubaDude] torrent


Download torrent: Download Black Sea(2014)MPEG-4[DaScubaDude] torrent Magnet link Bookmark Torrent: Black Sea(2014)MPEG-4[DaScubaDude]   Black Sea(2014)MPEG-4[DaScubaDude] torrent
Info hash: 92B0FC38ADA51EA0E8F53361E79C1105882121F3
Category: Categories > Movies
Trackers:
View all torrent trackers >
Health:
 seeds: 1 ,  leechers: 1 |  Update >
Torrent language: English English
Total Size: 1.2 GB
Files List:
1    View torrent files >
Uploader:
dascubadude
Torrent added: December 22, 2016, 8:32 pm
Users rating: ---, not rated. please login to rate.

Download Black Sea(2014)MPEG-4[DaScubaDude] torrent



Torrent Description


[youtube]Urrve_J9F_g[/youtube]
Black Sea (2014)
R | 1h 54min | Adventure, Thriller | 23 January 2015 (USA)
In order to make good with his former employers, a submarine captain takes a job with a shadowy backer to search the depths of the Black Sea for a submarine rumored to be loaded with gold.
Director: Kevin Macdonald
Writer: Dennis Kelly (screenplay)
Stars: Jude Law, Scoot McNairy, Ben Mendelsohn |

General
Complete name : BlackSea\BLACK_SEA_Title18.mp4
Format : MPEG-4
Format profile : Base Media
Codec ID : isom (isom/iso2/avc1/mp41)
File size : 1.16 GiB
Duration : 1h 54mn
Overall bit rate : 1 447 Kbps
Movie name : BLACK_SEA
Genre : Thriller
Writing application : Lavf54.6.100

Video
ID : 1
Format : AVC
Format/Info : Advanced Video Codec
Format profile :
Format settings, CABAC : No
Format settings, ReFrames : 6 frames
Codec ID : avc1
Codec ID/Info : Advanced Video Coding
Duration : 1h 54mn
Bit rate : 1 192 Kbps
Width : 720 pixels
Height : 404 pixels
Display aspect ratio : 16:9
Frame rate mode : Constant
Frame rate : 29.970 (30000/1001) fps
Color space : YUV
Chroma subsampling : 4:2:0
Bit depth : 8 bits
Scan type : Progressive
Bits/(Pixel*Frame) : 0.137
Stream size : 974 MiB (82%)

Audio
ID : 2
Format : AAC
Format/Info : Advanced Audio Codec
Format profile : LC
Codec ID : 40
Duration : 1h 54mn
Bit rate mode : Constant
Bit rate : 249 Kbps
Channel(s) : 2 channels
Channel(s)_Original : 6 channels
Channel positions : Front: L C R, Side: L R, LFE
Sampling rate : 44.1 KHz
Frame rate : 43.066 fps (1024 spf)
Compression mode : Lossy
Stream size : 204 MiB (17%)
Default : Yes
Alternate group : 1


Download Black Sea(2014)MPEG-4[DaScubaDude] torrent




Comments   (please login to add your comment!)

go to     carina     data science     xxx 2160p     2017 hindi telugu     normal     swing     jugnu 1973     you were never really here     alix lynx barter sex     grass     khoj 2017     robin hood     keyword research     2018 brazzers     sexy shoplifters     chloe amour dicking     rdx     10 inches     sarah jessie     roxi     cargo     grammar english     lucia fernandez momxxx     


Home - Browse Torrents

Made with love by an Extratorrent Fan!