extratorrent - A Fan Made Alternative Login   |   Register
Important Information
Registrations are open now
-------------------------------------

Please click here to register with Extratorrent2 to recieve latest updates, add bookmarks and to post comments.

Friends
Friends

1) ProxyFix

Extratorrent2 > Categories > Movies > Black Sea (2014).DVDrip.XviD - Italian English.Ac3.5.1.Sub.ita.MIRCrew torrent


Browse Movies torrents

Black Sea (2014).DVDrip.XviD - Italian English.Ac3.5.1.Sub.ita.MIRCrew torrent


Download torrent: Download Black Sea (2014).DVDrip.XviD - Italian English.Ac3.5.1.Sub.ita.MIRCrew torrent Magnet link Bookmark Torrent: Black Sea (2014).DVDrip.XviD - Italian English.Ac3.5.1.Sub.ita.MIRCrew   Black Sea (2014).DVDrip.XviD - Italian English.Ac3.5.1.Sub.ita.MIRCrew torrent
Info hash: 27B9C9B13F78EAC21FF4A11B9FDFE8FC42BB58AD
Category: Categories > Movies
Trackers:
View all torrent trackers >
Health:
 seeds: 1 ,  leechers: 1 |  Update >
Torrent language: English English
Total Size: 1.8 GB
Files List:
4    View torrent files >
Uploader:
robbyrs
Torrent added: May 25, 2016, 6:21 am
Users rating: ---, not rated. please login to rate.

Download Black Sea (2014).DVDrip.XviD - Italian English.Ac3.5.1.Sub.ita.MIRCrew torrent



Torrent Description

Black Sea (2014).DVDrip.XviD - Italian English.Ac3.5.1.Sub.ita.MIRCrew





NO FOUND ONLY ORIGINAL RELEASE



Black Sea (2014)







Titolo originale Black Sea
Lingua originale inglese
Paese di produzione Regno Unito
Anno 2014
Durata 115 min
Genere avventura, thriller
Regia Kevin Macdonald
Sceneggiatura Dennis Kelly
Produttore Kevin Macdonald, Charles Steel
Produttore esecutivo Jim Cochrane, Merve Harzadin, Tessa Ross
Distribuzione (Italia) Notorious Pictures
Fotografia Christopher Ross
Montaggio Justine Wright
Musiche Ilan Eshkeri
Scenografia Nick Palmer
Costumi Natalie Ward




Jude Law: Capitano Robinson
Ben Mendelsohn: Fraser
Grigoriy Dobrygin: Morozov
Scoot McNairy: Daniels
David Threlfall: Peters
Michael Smiley: Reynolds
Tobias Menzies: Lewis
Karl Davies: Liam
Konstantin Khabenskiy: Blackie
Sergey Puskepalis: Zaytsev
Sergey Kolesnikov: Levchenko
Sergey Veksler: Baba
Bobby Schofield: Tobin
Jodie Whittaker: Chrissy
Branwell Donaghey: Gittens
Daniel Ryan: Kurston




Robinson, con un divorzio alle spalle e un figlio con cui non ha alcun rapporto, viene licenziato dal suo incarico di capitano di sommergibili per il recupero di relitti. Preso dalla disperazione, decide allora di mettersi nelle mani di un miliardario che gli offre di recuperare un immenso carico d'oro contenuto all'interno di un sommergibile tedesco che giace sul fondale del Mar Nero dalla Seconda Guerra Mondiale..............



In order to make good with his former employers, a submarine captain takes a job with a shadowy backer to search the depths of the Black Sea for a submarine rumored to be loaded with gold...........














[spoiler]
General
Complete name : Black Sea (2014).ita.eng.sub.ita.eng.MIRcrew\Black Sea (2014).ita.eng.sub.ita.eng.MIRcrew.avi
Format : AVI
Format/Info : Audio Video Interleave
File size : 1.79 GiB
Duration : 1h 55mn
Overall bit rate : 2 220 Kbps
Movie name : ENCODED by www.ilcorsaroverde.org
Director : MIRCrew by robbyrs
Writing application : VirtualDubMod 1.5.10.2 (build 2540/release)
Writing library : VirtualDubMod build 2540/release

Video
ID : 0
Format : MPEG-4 Visual
Format profile :
Format settings, BVOP : No
Format settings, QPel : No
Format settings, GMC : No warppoints
Format settings, Matrix : Default (H.263)
Codec ID : XVID
Codec ID/Hint : XviD
Duration : 1h 55mn
Bit rate : 1 309 Kbps
Width : 720 pixels
Height : 300 pixels
Display aspect ratio : 2.40:1
Frame rate : 24.000 fps
Color space : YUV
Chroma subsampling : 4:2:0
Bit depth : 8 bits
Scan type : Progressive
Compression mode : Lossy
Bits/(Pixel*Frame) : 0.253
Stream size : 1.05 GiB (59%)
Writing library : XviD 64

Audio #1
ID : 1
Format : AC-3
Format/Info : Audio Coding 3
Mode extension : CM (complete main)
Codec ID : 2000
Duration : 1h 55mn
Bit rate mode : Constant
Bit rate : 448 Kbps
Channel(s) : 6 channels
Channel positions : Front: L C R, Side: L R, LFE
Sampling rate : 48.0 KHz
Bit depth : 16 bits
Compression mode : Lossy
Stream size : 369 MiB (20%)
Alignment : Split accross interleaves
Interleave, duration : 42 ms (1.00 video frame)
Interleave, preload duration : 500 ms

Audio #2
ID : 2
Format : AC-3
Format/Info : Audio Coding 3
Mode extension : CM (complete main)
Codec ID : 2000
Duration : 1h 55mn
Bit rate mode : Constant
Bit rate : 448 Kbps
Channel(s) : 6 channels
Channel positions : Front: L C R, Side: L R, LFE
Sampling rate : 48.0 KHz
Bit depth : 16 bits
Compression mode : Lossy
Stream size : 369 MiB (20%)
Alignment : Split accross interleaves
Interleave, duration : 42 ms (1.00 video frame)
Interleave, preload duration : 500 ms



[/spoiler]




Download Black Sea (2014).DVDrip.XviD - Italian English.Ac3.5.1.Sub.ita.MIRCrew torrent


Related Torrents


Comments   (please login to add your comment!)


Home - Browse Torrents

Made with love by an Extratorrent Fan!