extratorrent - A Fan Made Alternative Login   |   Register
Important Information
Registrations are open now
-------------------------------------

Please click here to register with Extratorrent2 to recieve latest updates, add bookmarks and to post comments.

Friends
Friends

1) ProxyFix

Extratorrent2 > Categories > Movies > Black.Sea.2014.WEBRip.XviD.MP3-RARBG torrent


Browse Movies torrents

Black.Sea.2014.WEBRip.XviD.MP3-RARBG torrent


Download torrent: Download Black.Sea.2014.WEBRip.XviD.MP3-RARBG torrent Magnet link Bookmark Torrent: Black.Sea.2014.WEBRip.XviD.MP3-RARBG   Black.Sea.2014.WEBRip.XviD.MP3-RARBG torrent
Info hash: F4AC4634B7EC89B4AAD0B3EC76B43C4C9D4DE58E
Category: Categories > Movies
Trackers:
View all torrent trackers >
Health:
 seeds: 0 ,  leechers: 1 |  Update >
Torrent language: English English
Total Size: 1.4 GB
Files List:
4    View torrent files >
Uploader:
TeXTX
Torrent added: May 25, 2015, 9:32 pm
Users rating: ---, not rated. please login to rate.

Download Black.Sea.2014.WEBRip.XviD.MP3-RARBG torrent



Torrent Description

Black.Sea.2014.WEBRip.XviD.MP3-RARBG

Screens:







Info:

[mediainfo]

Format : AVI
Format/Info : Audio Video Interleave
File size : 1.42 GiB
Duration : 1h 54mn
Overall bit rate : 1 779 Kbps
Movie name : RARBG.COM - Black.Sea.2014.WEBRip.XviD.MP3-RARBG
Writing library : VirtualDub build 35491/release
Comment : RARBG.COM - Black.Sea.2014.WEBRip.XviD.MP3-RARBG

Video
ID : 0
Format : MPEG-4 Visual
Format profile :
Format settings, BVOP : No
Format settings, QPel : No
Format settings, GMC : No warppoints
Format settings, Matrix : Default (H.263)
Codec ID : XVID
Codec ID/Hint : XviD
Duration : 1h 54mn
Bit rate : 1 639 Kbps
Width : 720 pixels
Height : 320 pixels
Display aspect ratio : 2.25:1
Frame rate : 23.976 fps
Color space : YUV
Chroma subsampling : 4:2:0
Bit depth : 8 bits
Scan type : Progressive
Compression mode : Lossy
Bits/(Pixel*Frame) : 0.297
Stream size : 1.31 GiB (92%)
Writing library : Lavc56.20.100

Audio
ID : 1
Format : MPEG Audio
Format version : Version 1
Format profile : Layer 3
Mode : Joint stereo
Mode extension : MS Stereo
Codec ID : 55
Codec ID/Hint : MP3
Duration : 1h 54mn
Bit rate mode : Constant
Bit rate : 128 Kbps
Channel(s) : 2 channels
Sampling rate : 44.1 KHz
Compression mode : Lossy
Stream size : 105 MiB (7%)
Alignment : Aligned on interleaves
Interleave, duration : 26 ms (0.63 video frame)
Interleave, preload duration : 522 ms
Writing library : LAME3.99.5




[/mediainfo]

Notes:
Greetz to all! :)


Download Black.Sea.2014.WEBRip.XviD.MP3-RARBG torrent


Related Torrents


Comments   (please login to add your comment!)

aravinda     assholefever monique woods gagging and gaping     1949     2008 720p hindi     eats     2018 brazzers     borg ita     pornmegaload     best of 70s     rain     first world     claudia bavel mofos     robbers roost     make     whitney wright anal     tushy maya     hindi dubed     2 fast 2 furious dual     ddr 720p 2016     orgasme     please make me lesbian     strangers x265     avengers infinity war 2018     hindi new     


Home - Browse Torrents

Made with love by an Extratorrent Fan!