extratorrent - A Fan Made Alternative Login   |   Register
Important Information
Registrations are open now
-------------------------------------

Please click here to register with Extratorrent2 to recieve latest updates, add bookmarks and to post comments.

Friends
Friends

1) ProxyFix

Extratorrent2 > Categories > Movies > The.Exorcism.of.Anna.Ecklund.2016.1080p.MULTISUB.WEB-DL.DD5.1.H.264.CRO-DIAMOND torrent


Browse Movies torrents

The.Exorcism.of.Anna.Ecklund.2016.1080p.MULTISUB.WEB-DL.DD5.1.H.264.CRO-DIAMOND torrent


Download torrent: Download The.Exorcism.of.Anna.Ecklund.2016.1080p.MULTISUB.WEB-DL.DD5.1.H.264.CRO-DIAMOND torrent Magnet link Bookmark Torrent: The.Exorcism.of.Anna.Ecklund.2016.1080p.MULTISUB.WEB-DL.DD5.1.H.264.CRO-DIAMOND   The.Exorcism.of.Anna.Ecklund.2016.1080p.MULTISUB.WEB-DL.DD5.1.H.264.CRO-DIAMOND torrent
Info hash: 48A6BA57452971FC9BCBE453122D0180AE1290F6
Category: Categories > Movies
Trackers:
View all torrent trackers >
Health:
 seeds: 2 ,  leechers: 4 |  Update >
Torrent language: English English
Total Size: 2.7 GB
Files List:
1    View torrent files >
Uploader:
dmd12
Torrent added: February 5, 2018, 5:46 am
Tags: Horror, Thriller
Users rating: ---, not rated. please login to rate.

Download The.Exorcism.of.Anna.Ecklund.2016.1080p.MULTISUB.WEB-DL.DD5.1.H.264.CRO-DIAMOND torrent



Torrent Description





Code:

General
Unique ID : 15644136890527572085782133188358541789 (0xBC4F37FD26203C564A30E38ABDB91DD)
Complete name : The.Exorcism.of.Anna.Ecklund.2016.1080p.WEB-DL.DD5.1.H.264.CRO-DIAMOND.mkv
Format : Matroska
Format version : Version 4 / Version 2
File size : 2.71 GiB
Duration : 1h 19mn
Overall bit rate : 4 896 Kbps
Movie name : CRO DIAMOND 1080p
Encoded date : UTC 2018-02-04 22:32:23
Writing application : mkvmerge v9.6.0 ('Slave To Your Mind') 64bit
Writing library : libebml v1.3.4 + libmatroska v1.4.5
DURATION : 01:13:02.626000000
NUMBER_OF_FRAMES : 543
NUMBER_OF_BYTES : 21319
_STATISTICS_WRITING_APP : mkvmerge v9.6.0 ('Slave To Your Mind') 64bit
_STATISTICS_WRITING_DATE_UTC : 2018-02-04 22:32:23
_STATISTICS_TAGS : BPS DURATION NUMBER_OF_FRAMES NUMBER_OF_BYTES

Video
ID : 1
Format : AVC
Format/Info : Advanced Video Codec
Format profile :
Format settings, CABAC : Yes
Format settings, ReFrames : 4 frames
Codec ID : V_MPEG4/ISO/AVC
Duration : 1h 19mn
Bit rate : 4 550 Kbps
Width : 1 920 pixels
Height : 796 pixels
Display aspect ratio : 2.40:1
Frame rate mode : Constant
Frame rate : 23.976 fps
Color space : YUV
Chroma subsampling : 4:2:0
Bit depth : 8 bits
Scan type : Progressive
Bits/(Pixel*Frame) : 0.124
Stream size : 2.44 GiB (90%)
Title : CRO DIAMOND 1080p
Writing library : x264 core 142 r2491 24e4fed
Encoding settings : cabac=1 / ref=3 / deblock=1:0:0 / analyse=0x3:0x113 / me=hex / subme=7 / psy=1 / psy_rd=1.00:0.00 / mixed_ref=1 / me_range=16 / chroma_me=1 / trellis=1 / 8x8dct=1 / cqm=0 / deadzone=21,11 / fast_pskip=1 / chroma_qp_offset=-2 / threads=12 / lookahead_threads=2 / sliced_threads=0 / nr=0 / decimate=1 / interlaced=0 / bluray_compat=0 / constrained_intra=0 / bframes=3 / b_pyramid=2 / b_adapt=1 / b_bias=0 / direct=1 / weightb=1 / open_gop=0 / weightp=2 / keyint=240 / keyint_min=24 / scenecut=40 / intra_refresh=0 / rc_lookahead=40 / rc=abr / mbtree=1 / bitrate=4550 / ratetol=1.0 / qcomp=0.60 / qpmin=0 / qpmax=69 / qpstep=4 / vbv_maxrate=62500 / vbv_bufsize=78125 / nal_hrd=none / filler=0 / ip_ratio=1.40 / aq=1:1.00
Default : Yes
Forced : No
Color range : Limited
Color primaries : BT.709
Transfer characteristics : BT.709
Matrix coefficients : BT.709

Audio
ID : 2
Format : AC-3
Format/Info : Audio Coding 3
Mode extension : CM (complete main)
Format settings, Endianness : Big
Codec ID : A_AC3
Duration : 1h 19mn
Bit rate mode : Constant
Bit rate : 384 Kbps
Channel(s) : 6 channels
Channel positions : Front: L C R, Side: L R, LFE
Sampling rate : 48.0 KHz
Compression mode : Lossy
Stream size : 218 MiB (8%)
Language : English
Default : No
Forced : No

Text #1
ID : 3
Format : UTF-8
Codec ID : S_TEXT/UTF8
Codec ID/Info : UTF-8 Plain Text
Language : English
Default : No
Forced : No

Text #2
ID : 4
Format : UTF-8
Codec ID : S_TEXT/UTF8
Codec ID/Info : UTF-8 Plain Text
Title : SDH
Language : English
Default : No
Forced : No

Text #3
ID : 5
Format : UTF-8
Codec ID : S_TEXT/UTF8
Codec ID/Info : UTF-8 Plain Text
Language : Danish
Default : No
Forced : No

Text #4
ID : 6
Format : UTF-8
Codec ID : S_TEXT/UTF8
Codec ID/Info : UTF-8 Plain Text
Language : Dutch
Default : No
Forced : No

Text #5
ID : 7
Format : UTF-8
Codec ID : S_TEXT/UTF8
Codec ID/Info : UTF-8 Plain Text
Language : Finnish
Default : No
Forced : No

Text #6
ID : 8
Format : UTF-8
Codec ID : S_TEXT/UTF8
Codec ID/Info : UTF-8 Plain Text
Language : French
Default : No
Forced : No

Text #7
ID : 9
Format : UTF-8
Codec ID : S_TEXT/UTF8
Codec ID/Info : UTF-8 Plain Text
Language : German
Default : No
Forced : No

Text #8
ID : 10
Format : UTF-8
Codec ID : S_TEXT/UTF8
Codec ID/Info : UTF-8 Plain Text
Language : Italian
Default : No
Forced : No

Text #9
ID : 11
Format : UTF-8
Codec ID : S_TEXT/UTF8
Codec ID/Info : UTF-8 Plain Text
Language : Japanese
Default : No
Forced : No

Text #10
ID : 12
Format : UTF-8
Codec ID : S_TEXT/UTF8
Codec ID/Info : UTF-8 Plain Text
Language : Norwegian
Default : No
Forced : No

Text #11
ID : 13
Format : UTF-8
Codec ID : S_TEXT/UTF8
Codec ID/Info : UTF-8 Plain Text
Language : Polish
Default : No
Forced : No

Text #12
ID : 14
Format : UTF-8
Codec ID : S_TEXT/UTF8
Codec ID/Info : UTF-8 Plain Text
Language : Portuguese
Default : No
Forced : No

Text #13
ID : 15
Format : UTF-8
Codec ID : S_TEXT/UTF8
Codec ID/Info : UTF-8 Plain Text
Language : Russian
Default : No
Forced : No

Text #14
ID : 16
Format : UTF-8
Codec ID : S_TEXT/UTF8
Codec ID/Info : UTF-8 Plain Text
Language : Spanish
Default : No
Forced : No

Text #15
ID : 17
Format : UTF-8
Codec ID : S_TEXT/UTF8
Codec ID/Info : UTF-8 Plain Text
Title : Latin America
Language : Spanish
Default : No
Forced : No

Text #16
ID : 18
Format : UTF-8
Codec ID : S_TEXT/UTF8
Codec ID/Info : UTF-8 Plain Text
Language : Swedish
Default : No
Forced : No

Menu
00:00:00.000 : en:Chapter 01
00:08:05.485 : en:Chapter 02
00:18:17.763 : en:Chapter 03
00:28:53.607 : en:Chapter 04
00:38:59.337 : en:Chapter 05
00:50:16.806 : en:Chapter 06
00:59:58.637 : en:Chapter 07
01:09:58.903 : en:Chapter 08

Download The.Exorcism.of.Anna.Ecklund.2016.1080p.MULTISUB.WEB-DL.DD5.1.H.264.CRO-DIAMOND torrent


Related Torrents


Comments   (please login to add your comment!)

ray donovan     brian fallon sleepwalkers     fc2     bedside     barely legal     jason brown     ready player one     2012 bengali     228     naked and     720p 2017     574     2012 s     sound forge     with love     fuckdoll     kimberlee rose     joseline kelly odette delacroix     chronicles of narnia     the super fanny     elwynciel     auditions     very best     pcu     


Home - Browse Torrents

Made with love by an Extratorrent Fan!